#TITLE:Beautiful Life;
#SUBTITLE:;
#ARTIST:V.O.S;
#TITLETRANSLIT:Beautiful Life;
#SUBTITLETRANSLIT:;
#ARTISTTRANSLIT:V.O.S;
#CREDIT:;
#BANNER:Beautiful Life-bn.png;
#BACKGROUND:Beautiful Life-bg.png;
#LYRICSPATH:;
#CDTITLE:pm4cd.png;
#MUSIC:Beautiful Life.mp3;
#OFFSET:-0.020;
#SAMPLESTART:57.674;
#SAMPLELENGTH:20.000;
#SELECTABLE:YES;
#BPMS:0.000=100.010,137.750=50.010,139.750=100.010;
#STOPS:;
#BGCHANGES:;
// cache tags:
#FIRSTBEAT:1.750;
#LASTBEAT:332.750;
#SONGFILENAME:Songs/Music V.I.P ^_^/Beautiful Life/Beautiful Life.sm;
#HASMUSIC:1;
#HASBANNER:1;
#MUSICLENGTH:205.145;
// end cache tags

//---------------dance-single - ----------------
#NOTES:
     dance-single:
     :
     Hard:
     11:
     1.000,0.993,1.000,0.473,1.000,705.000,456.000,97.000,0.000,370.000:
0000
0000
0000
0000
0000
0000
0000
1011
0000
1011
0000
1100
0000
0000
0010
1101
,
0000
1101
0000
0011
0000
0000
0000
1110
0000
1110
0000
0101
0000
0000
1000
0111
,
0000
0111
0000
1010
0000
0000
0000
0111
0000
0111
0000
0110
0000
0000
0100
1011
,
0000
1011
0000
1001
0000
0000
0000
1101
0000
1101
0000
1010
0000
0000
1000
0111
,
0000
0111
0000
1100
0000
0001
0001
0111
0000
0111
0000
1001
0000
0000
0010
1101
,
0000
1101
0000
0011
0000
0100
0000
1110
0000
1110
0000
1001
0000
0000
0100
1011
,
0000
1011
0000
1001
0000
0001
0000
0111
0000
0111
0000
1010
0000
0000
0010
1101
,
0000
1101
0000
0011
0000
0100
0000
1011
0000
1011
0000
0011
0000
0000
0001
1110
,
0000
1110
0000
0101
0000
0001
0000
1101
0000
1101
0000
1010
0000
0000
1000
0111
,
0000
0111
0000
1100
0000
0001
0000
1101
0000
1101
0000
0110
0000
0000
0100
1011
,
0000
1011
0000
1100
0000
0001
0000
1101
0000
1101
0000
1010
0000
0000
0001
1110
,
0000
1110
0000
0011
0000
0100
0000
1101
0000
1101
0000
0101
0000
1000
1000
0111
,
0000
0111
1000
0110
0000
0001
0000
1111
0000
1101
0000
0110
0000
0000
0001
1110
,
0000
1110
0000
0011
0000
0010
0000
1101
0000
1101
0000
0011
0000
0000
0001
1110
,
0000
1110
0000
1001
0000
0100
0000
0111
0000
0111
0000
0011
0000
0000
0010
1101
,
0000
1101
0000
0011
0000
0100
0000
1101
0000
1101
0000
1100
0000
0001
0000
0111
,
0000
0111
0000
1100
0000
0010
0000
1111
0000
1110
0000
0101
0000
0000
0100
1011
,
0000
1011
0000
1010
0000
0010
0000
1110
0000
1110
0000
0011
0000
0000
0010
1101
,
0000
1101
0000
0110
0000
1000
0000
1101
0000
1101
0000
0101
0000
0000
0100
1011
,
0000
1011
0000
1100
0000
0010
0000
1110
0000
1110
0000
0011
0000
0100
1000
0111
,
1000
0110
1000
0001
0010
0100
1000
1012
0000
1110
0000
1100
0000
0010
0100
1000
,
0100
0010
0100
1010
0000
0100
0000
1213
0000
1011
0000
0011
0000
0001
0000
1001
,
0010
1000
0010
1001
0010
1000
0000
2311
0000
0111
0000
0110
0000
0001
0000
0101
,
0010
0100
0010
0001
0010
0100
0000
3011
0000
1110
0000
1110
0000
0111
0000
0111
,
1000
1000
0000
1101
0000
0100
0000
1111
0000
1110
0000
0101
0000
0000
0010
1101
,
0000
1101
0000
1010
0000
0001
0000
1101
0000
1101
0000
0011
0000
0000
1000
0111
,
0000
0111
0000
1100
0000
0010
0000
1101
0000
1101
0000
0110
0001
0010
0100
1011
,
0000
1011
0000
1001
0000
0010
0000
1110
0000
1110
0000
1010
0001
0010
0100
1011
,
0000
1011
0000
0011
0000
0100
0000
1111
0000
1110
0000
1100
0000
0000
1000
0111
,
0000
0111
0000
0011
0000
0100
0000
1011
0000
1011
0000
1010
0000
0000
0001
1110
,
0000
1110
0000
1100
0000
0001
0000
1101
0000
1101
0000
1010
0000
0000
0010
1101
,
0000
1101
0000
1010
0000
0010
0000
1110
0000
1110
0000
0101
0000
1000
0100
1011
,
0100
1011
0000
1001
0000
0010
0000
0101
0000
0000
1010
0101
0000
0010
0000
0001
,
0000
0110
0000
1100
0000
1000
0000
0101
0000
0000
0101
0011
0000
0100
0000
1000
,
0000
0000
0101
0000
0000
0000
1010
0000
0000
0000
0100
0000
0000
0000
0002
0000
0000
0100
0010
0000
0000
0100
1000
0000
0000
1000
0110
0000
1000
0000
1113
0000
,
0000
1110
0000
0011
0000
0000
0010
1101
0000
1101
0000
1010
0000
0001
0000
1110
,
0000
1110
0000
0110
0000
0000
0100
1011
0000
1011
0000
0101
0000
0010
0000
1101
,
0000
1101
0000
0011
0000
0000
0100
1011
0000
1011
0000
1100
0000
0010
0000
0111
,
0000
0111
0000
1100
0000
0000
0010
1101
0000
1101
0000
0011
0000
0010
0000
1110
,
0000
1110
0000
0101
0000
0000
1000
0111
0000
0111
0000
1010
0000
0010
0000
1101
,
0000
1101
0000
0110
0000
0000
0001
1110
0000
1110
0000
0011
0000
0010
0000
1101
,
0000
1101
0000
1010
0000
0010
0100
1011
0000
1011
0000
1100
0000
0010
0000
2110
,
0000
0111
0000
0011
0000
0100
0010
0001
0010
0100
0010
0101
0000
0010
0000
3121
,
0000
1100
0000
0101
0000
1000
0000
1001
0100
0001
0100
1001
0100
0001
0100
1231
,
0000
1011
0000
1010
0000
0001
0010
0011
0000
0011
0000
1010
0000
1000
0000
1301
,
0000
1011
0000
1011
0000
1101
0000
1101
0000
0010
0100
1011
0000
1010
0000
1111
,
0000
1110
0000
1001
0000
0000
0100
1101
0000
1101
0000
0011
0000
0001
0000
1101
,
0000
1101
0000
0101
0000
0000
0001
1011
0000
1011
0000
1010
0000
0001
0000
1101
,
0000
1101
0000
1010
1000
0100
0010
1101
0000
1101
0000
0011
0000
0100
0000
1110
,
0000
1110
0000
0101
0010
0100
1000
1011
0000
1011
0000
1001
0000
0010
0000
1111
,
0000
1110
0000
0011
0000
0000
1000
0111
0000
0111
0000
1001
0000
0010
0000
1101
,
0000
1101
0000
0011
0000
0000
0001
1110
0000
1110
0000
0101
0000
0010
0000
1011
,
0000
1011
0000
1001
0000
0000
1000
0111
0000
0111
0000
0110
0000
0001
0000
1101
,
0000
1101
0000
0011
1000
0010
0100
1011
0000
1011
0000
0101
0000
0010
0000
2101
,
0000
0010
0000
0111
0000
0100
0000
0111
0000
0001
0000
0111
0000
0010
0000
3211
,
0000
1000
0000
1011
0001
0010
1000
1011
0000
0001
0000
1011
0000
0010
0000
1321
,
0000
1000
0000
1101
0000
0100
0000
1101
0000
0001
0000
1101
0000
0100
0000
1132
,
0000
0010
0100
1110
0010
0100
1000
1110
0100
1000
0100
1110
0000
0100
0000
2223
,
0000
0032
0003
0322
0000
3200
0300
2203
0000
0032
0003
3022
0000
2300
3000
2230
,
0000
0023
0030
0322
0000
3200
0300
2203
0000
0032
0003
3022
0000
2300
3000
2203
,
0000
0032
0003
0322
0000
3200
0300
2230
0000
0023
0030
3022
0000
2300
3000
2203
,
0000
0030
0000
0001
0000
0000
0000
0010
0000
0001
0000
0010
0000
0001
0000
0010
,
3300
1111
0000
0000
1111
0000
0000
1111
0000
1000
0000
0100
0000
0010
0000
0001
,
0000
1111
0000
0000
1111
0000
0000
1111
0000
0001
0000
0010
0000
0100
0000
1000
,
0000
0111
0000
0000
1110
0000
0000
0111
0000
1000
0000
0100
0000
0010
0000
1111
,
0000
0100
0000
1011
0000
0010
0000
1101
0000
0001
0000
1110
0000
1000
0000
0222
,
0000
2030
3000
2320
0000
0203
0300
0232
0000
3020
0030
2023
0000
0302
0003
3202
,
0000
2030
3000
2320
0000
0203
0300
3202
0000
2030
3000
2320
0000
0203
0300
0232
,
0000
3020
0030
2023
0000
0302
0003
3202
0000
2030
3000
2320
0000
0203
0300
0232
,
0000
3020
0030
2320
0000
0203
0300
3202
0000
1030
0000
0013
0000
1000
0000
2300
,
0000
0000
0100
0010
0000
0000
0100
0001
0000
0000
0001
0111
0000
0001
0000
3111
,
0000
0111
0000
1101
0000
0000
0110
1011
0000
1011
0000
1110
0000
0101
0000
0111
,
0000
0111
0000
1011
0100
0010
1010
1101
0000
1101
0000
1011
0000
1001
0000
1110
,
0000
1110
0000
0111
1000
0100
0011
1101
0000
1101
0000
1110
0000
0110
0000
1111
,
0000
1011
0000
1110
0000
0000
1001
0111
0000
0111
0000
1011
0000
1100
0000
1101
,
0000
1101
0000
0111
0000
0000
1010
0111
0000
0111
0000
1101
0000
0011
0000
1101
,
0000
1101
0000
1011
0000
0000
1001
1011
0000
1011
0000
1110
0000
0011
0000
1110
,
0000
1110
0000
1101
0000
0110
0000
0111
0000
0111
0000
1011
0000
0110
0000
1101
,
0000
1101
0000
1110
0000
0000
0101
0111
0000
0111
0000
1011
0000
1001
0000
1101
,
0000
1101
0000
1011
0000
0000
1100
1011
0000
1011
0000
1110
0000
0101
0000
1101
,
0000
1101
0000
0111
0000
0000
0011
1110
0000
1110
0000
0111
0000
1001
0000
1101
,
0000
1101
0000
1011
0000
0000
1001
1110
0000
1110
0000
1011
0000
1001
0000
0201
,
0000
0000
0000
0010
0000
0001
0000
0000
0000
0001
0000
0010
0000
0000
0000
1000
,
0000
0000
0000
0300
0000
0000
0000
0000
0000
0000
0000
0000
0000
0000
0000
0000
;
